<?xml version="1.0" standalone="no"?>
<!DOCTYPE svg PUBLIC "-//W3C//DTD SVG 1.1//EN" "http://www.w3.org/Graphics/SVG/1.1/DTD/svg11.dtd" >
<svg xmlns="http://www.w3.org/2000/svg">
<metadata>Generated by IcoMoon</metadata>
<defs>
<font id="fwdmsp-icon" horiz-adv-x="1024">
<font-face units-per-em="1024" ascent="960" descent="-64" />
<missing-glyph horiz-adv-x="1024" />
<glyph unicode="&#x20;" horiz-adv-x="512" d="" />
<glyph unicode="&#xe900;" glyph-name="10" d="M230.4 549.376c1.024-5.12 4.096-9.216 9.216-10.24 4.096-2.048 9.216-2.048 13.312 1.024l56.32 30.72v-365.568c0-8.192 6.144-15.36 15.36-15.36h58.368c8.192 0 15.36 6.144 15.36 15.36v445.44c0 8.192-6.144 15.36-15.36 15.36h-52.224c-4.096 0-7.168-1.024-9.216-3.072l-95.232-51.2c-6.144-3.072-9.216-10.24-7.168-17.408l11.264-45.056zM367.616 636.416v-415.744h-28.672v374.784c0 8.192-6.144 15.36-15.36 15.36h-1.024c-4.096 0-7.168-1.024-9.216-3.072l-57.344-32.768-4.096 16.384 83.968 45.056h31.744zM599.040 227.84c39.936 0 106.496 26.624 106.496 200.704 0 172.032-66.56 197.632-105.472 197.632-65.536 0-106.496-76.8-106.496-200.704s38.912-197.632 105.472-197.632zM523.264 423.424c0 104.448 29.696 171.008 76.8 171.008 65.536 0 75.776-104.448 75.776-166.912 0-63.488-10.24-171.008-76.8-171.008-46.080 0-75.776 65.536-75.776 166.912zM595.968 180.736c108.544 0 169.984 91.136 169.984 250.88 0 153.6-59.392 240.64-161.792 240.64-105.472 0-169.984-94.208-169.984-246.784 0-150.528 62.464-244.736 161.792-244.736zM603.136 641.536c83.968 0 132.096-76.8 132.096-210.944 0-142.336-50.176-221.184-140.288-221.184-81.92 0-131.072 79.872-132.096 214.016 0 137.216 53.248 218.112 140.288 218.112zM1004.544 492.032h-52.224c-28.672 222.208-215.040 392.192-439.296 399.36l-1.024 49.152c0 6.144-3.072 11.264-8.192 14.336s-12.288 2.048-16.384-3.072l-70.656-73.728-1.024 63.488c0 6.144-3.072 11.264-8.192 14.336s-12.288 2.048-16.384-3.072l-96.256-101.376c-6.144-6.144-6.144-15.36 0-20.48l96.256-106.496c2.048-3.072 5.12-5.12 9.216-5.12 3.072 0 6.144 0 9.216 2.048 5.12 3.072 8.192 8.192 8.192 14.336l-1.024 65.536 71.68-75.776c4.096-5.12 11.264-7.168 18.432-4.096 5.12 3.072 8.192 8.192 8.192 14.336l-1.024 57.344c165.888-7.168 307.2-134.144 334.848-299.008h-50.176c-8.192 0-15.36-6.144-15.36-15.36v-71.68c0-8.192 6.144-15.36 15.36-15.36h52.224c-18.432-162.816-146.432-291.84-310.272-311.296v80.896c0 8.192-6.144 15.36-15.36 15.36h-70.656c-8.192 0-15.36-6.144-15.36-15.36v-78.848c-154.624 25.6-276.48 153.6-294.912 309.248h80.896c8.192 0 15.36 6.144 15.36 15.36v70.656c0 8.192-6.144 15.36-15.36 15.36h-205.824c-8.192 0-15.36-6.144-15.36-15.36v-70.656c0-8.192 6.144-15.36 15.36-15.36h22.528c20.48-214.016 185.344-385.024 397.312-411.648v-23.552c0-8.192 6.144-15.36 15.36-15.36h70.656c8.192 0 15.36 6.144 15.36 15.36v22.528c217.088 18.432 392.192 194.56 412.672 411.648h51.2c8.192 0 15.36 6.144 15.36 15.36v70.656c0 8.192-6.144 15.36-15.36 15.36zM925.696 407.040c-14.336-215.040-186.368-388.096-400.384-401.408-8.192 0-15.36-6.144-15.36-15.36v-21.504h-40.96v22.528c0 8.192-6.144 14.336-14.336 15.36-209.92 21.504-370.688 190.464-384 400.384 0 8.192-6.144 15.36-15.36 15.36h-21.504v40.96h176.128v-40.96h-81.92c-4.096 0-8.192-2.048-11.264-5.12-4.096-4.096-4.096-8.192-4.096-11.264 13.312-184.32 155.648-332.8 338.944-354.304h1.024c2.048 0 7.168 0 11.264 4.096 1.024 1.024 5.12 5.12 5.12 11.264v80.896h40.96v-82.944c0-4.096 2.048-8.192 5.12-11.264 4.096-4.096 8.192-4.096 11.264-4.096 193.536 13.312 344.064 162.816 358.4 356.352 0 2.048 0 7.168-4.096 11.264-1.024 1.024-5.12 5.12-11.264 5.12h-54.272v40.96h52.224c4.096 0 8.192 2.048 11.264 5.12 4.096 4.096 4.096 8.192 4.096 11.264v1.024c-23.552 194.56-188.416 340.992-382.976 340.992-2.048 0-3.072 0-5.12-1.024h-3.072l-3.072-3.072c-4.096-4.096-4.096-8.192-4.096-11.264l1.024-33.792-62.464 66.56 61.44 64.512 1.024-27.648c0-8.192 6.144-15.36 15.36-15.36 222.208 0 404.48-166.912 424.96-386.048 0-8.192 6.144-15.36 15.36-15.36h51.2v-38.912h-50.176c-10.24 1.024-17.408-6.144-16.384-13.312zM386.048 903.68l1.024-131.072-62.464 66.56 61.44 64.512z" />
<glyph unicode="&#xe901;" glyph-name="AB" d="M992.256 461.312h-46.080c-14.336 202.752-161.792 371.712-362.496 409.6v62.464c0 10.24-6.144 19.456-15.36 23.552s-20.48 2.048-27.648-4.096l-98.304-88.064c-2.048-2.048-4.096-5.12-6.144-8.192v76.8c0 10.24-6.144 19.456-15.36 23.552s-20.48 2.048-27.648-4.096l-98.304-88.064c-5.12-5.12-8.192-11.264-8.192-18.432s2.048-13.312 7.168-18.432l98.304-98.304c5.12-5.12 11.264-7.168 18.432-7.168 3.072 0 6.144 1.024 10.24 2.048 9.216 4.096 15.36 13.312 15.36 23.552v87.040c1.024-2.048 3.072-5.12 5.12-7.168l98.304-98.304c5.12-5.12 11.264-7.168 18.432-7.168 3.072 0 6.144 1.024 10.24 2.048 9.216 4.096 15.36 13.312 15.36 23.552v72.704c172.032-36.864 297.984-183.296 310.272-357.376h-84.992c-14.336 0-25.6-11.264-25.6-25.6s11.264-25.6 25.6-25.6h86.016c-11.264-205.824-178.176-369.664-382.976-375.808v112.64c0 14.336-11.264 25.6-25.6 25.6s-25.6-11.264-25.6-25.6v-111.616c-193.536 18.432-346.112 177.152-357.376 372.736h78.848c14.336 0 25.6 11.264 25.6 25.6s-11.264 25.6-25.6 25.6h-151.552c-14.336 0-25.6-11.264-25.6-25.6s11.264-25.6 25.6-25.6h21.504c10.24-224.256 186.368-405.504 408.576-423.936v-19.456c0-14.336 11.264-25.6 25.6-25.6s25.6 11.264 25.6 25.6v18.432c233.472 6.144 422.912 192.512 434.176 425.984h46.080c14.336 0 25.6 11.264 25.6 25.6s-12.288 24.576-25.6 24.576zM386.048 808.448l-35.84 35.84 35.84 31.744v-67.584zM532.48 808.448l-35.84 35.84 35.84 31.744v-67.584zM233.472 230.912c13.312-5.12 27.648 2.048 32.768 15.36l43.008 121.856h147.456l45.056-123.904c0 0 0 0 0 0s0-1.024 1.024-1.024c0-1.024 1.024-2.048 1.024-3.072 0 0 1.024-1.024 1.024-1.024 1.024-1.024 1.024-2.048 2.048-2.048 0 0 1.024-1.024 1.024-1.024 1.024-1.024 1.024-1.024 2.048-2.048 0 0 1.024-1.024 1.024-1.024 1.024-1.024 2.048-1.024 3.072-2.048 0 0 1.024 0 1.024 0 1.024-1.024 3.072-1.024 4.096-2.048 0 0 1.024 0 1.024 0 1.024 0 2.048-1.024 4.096-1.024 0 0 0 0 0 0 4.096 0 18.432-2.048 37.888-2.048 46.080 0 122.88 7.168 166.912 47.104 22.528 20.48 33.792 47.104 33.792 77.824 0 36.864-11.264 67.584-34.816 90.112-11.264 11.264-24.576 19.456-38.912 26.624 31.744 17.408 59.392 45.056 59.392 86.016 0 33.792-12.288 63.488-36.864 82.944-38.912 31.744-102.4 40.96-189.44 24.576 0 0 0 0 0 0-1.024 0-2.048-1.024-3.072-1.024s-1.024 0-2.048-1.024c-1.024 0-2.048-1.024-2.048-1.024-1.024 0-1.024-1.024-2.048-1.024s-1.024-1.024-2.048-1.024-1.024-1.024-2.048-2.048-1.024-1.024-2.048-2.048c0-1.024-1.024-1.024-1.024-2.048s-1.024-1.024-1.024-2.048c0-1.024-1.024-1.024-1.024-2.048s0-1.024-1.024-2.048c-1.024 0-1.024-1.024-1.024-1.024 0-1.024 0-1.024 0-2.048s0-2.048 0-3.072c0 0 0 0 0 0v-237.568l-94.208 259.072c-4.096 10.24-13.312 16.384-24.576 16.384 0 0 0 0 0 0-11.264 0-20.48-7.168-23.552-17.408l-141.312-394.24c-5.12-13.312 2.048-28.672 15.36-32.768zM711.68 350.72c0-16.384-5.12-29.696-17.408-39.936-31.744-28.672-100.352-33.792-142.336-33.792v159.744c38.912 0 107.52 0 140.288-32.768 13.312-12.288 19.456-29.696 19.456-53.248zM678.912 597.504c12.288-10.24 18.432-24.576 18.432-44.032 0-39.936-74.752-61.44-104.448-66.56-15.36 1.024-28.672 1.024-39.936 1.024v126.976c58.368 8.192 102.4 2.048 125.952-17.408zM382.976 572.928l56.32-154.624h-111.616l55.296 154.624z" />
<glyph unicode="&#xe902;" glyph-name="basket" d="M526.336 650.752v310.272h-30.72v-310.272h-502.784v-218.112h71.68v-342.016h126.976v-162.816h641.024v162.816h126.976v342.016h70.656v218.112h-503.808zM191.488 263.68v-142.336h-96.256v142.336h96.256zM191.488 432.64v-138.24h-96.256v138.24h96.256zM191.488 620.032v-156.672h-167.936v156.672h167.936zM392.192 90.624v-132.096h-169.984v132.096h169.984zM392.192 263.68v-142.336h-169.984v142.336h169.984zM392.192 432.64v-138.24h-169.984v138.24h169.984zM392.192 620.032v-156.672h-169.984v156.672h169.984zM601.088 90.624v-132.096h-178.176v132.096h178.176zM601.088 263.68v-142.336h-178.176v142.336h178.176zM601.088 432.64v-138.24h-178.176v138.24h178.176zM422.912 463.36v156.672h179.2v-156.672h-179.2zM801.792 90.624v-132.096h-169.984v132.096h169.984zM801.792 263.68v-142.336h-169.984v142.336h169.984zM801.792 432.64v-138.24h-169.984v138.24h169.984zM631.808 463.36v156.672h169.984v-156.672h-169.984zM999.424 463.36h-166.912v156.672h166.912v-156.672zM928.768 263.68v-142.336h-96.256v142.336h96.256zM832.512 294.4v138.24h96.256v-138.24h-96.256z" />
<glyph unicode="&#xe903;" glyph-name="buffer" d="M1003.52 202.24l-111.616 51.2c-14.336 6.144-33.792 6.144-48.128 0l-321.536-148.48c-5.12-3.072-16.384-3.072-21.504 0l-321.536 148.48c-14.336 6.144-33.792 6.144-48.128 0l-110.592-51.2c-13.312-6.144-16.384-15.36-16.384-21.504 0-9.216 6.144-17.408 16.384-22.528l467.968-217.088c5.12-2.048 14.336-5.12 22.528-5.12 10.24 0 17.408 2.048 23.552 5.12l466.944 216.064c9.216 4.096 15.36 11.264 16.384 20.48 1.024 3.072 0 6.144-1.024 9.216 0 5.12-4.096 11.264-13.312 15.36zM978.944 179.712l-456.704-210.944c-5.12-3.072-16.384-3.072-21.504 0l-455.68 210.944 100.352 46.080c2.048 1.024 7.168 2.048 10.24 2.048 4.096 0 8.192-1.024 11.264-2.048l321.536-148.48c14.336-6.144 33.792-6.144 48.128 0l321.536 149.504c5.12 3.072 16.384 3.072 21.504 0l99.328-47.104zM1003.52 488.96l-111.616 51.2c-14.336 6.144-33.792 6.144-48.128 0l-321.536-148.48c-5.12-3.072-16.384-3.072-21.504 0l-321.536 148.48c-14.336 6.144-33.792 6.144-48.128 0l-110.592-51.2c-10.24-4.096-16.384-12.288-16.384-22.528 0-6.144 3.072-15.36 16.384-21.504l467.968-217.088c5.12-2.048 14.336-5.12 22.528-5.12 10.24 0 17.408 2.048 23.552 5.12l466.944 216.064c9.216 4.096 15.36 11.264 16.384 20.48 1.024 3.072 0 6.144-1.024 9.216 0 5.12-4.096 11.264-13.312 15.36zM978.944 466.432l-456.704-210.944c-5.12-3.072-16.384-3.072-21.504 0l-455.68 210.944 100.352 46.080c2.048 1.024 7.168 2.048 10.24 2.048 4.096 0 8.192-1.024 11.264-2.048l321.536-148.48c14.336-6.144 33.792-6.144 48.128 0l321.536 149.504c5.12 3.072 16.384 3.072 21.504 0l99.328-47.104zM20.48 712.192l467.968-200.704c6.144-2.048 14.336-4.096 22.528-4.096 9.216 0 17.408 1.024 23.552 4.096l468.992 200.704c13.312 6.144 16.384 15.36 16.384 21.504s-3.072 15.36-16.384 21.504l-468.992 200.704c-13.312 5.12-32.768 5.12-46.080 0l-467.968-200.704c-13.312-6.144-16.384-15.36-16.384-21.504 0-7.168 4.096-16.384 16.384-21.504zM523.264 928.256l453.632-194.56-452.608-193.536c-6.144-2.048-17.408-2.048-23.552 0l-452.608 193.536 451.584 193.536c6.144 3.072 17.408 3.072 23.552 1.024z" />
<glyph unicode="&#xe904;" glyph-name="cart" d="M990.208 559.616c-14.336 17.408-36.864 27.648-59.392 27.648h-396.288v340.992c0 14.336-11.264 25.6-25.6 25.6s-25.6-11.264-25.6-25.6v-342.016h-391.168c-22.528 0-44.032-10.24-59.392-27.648s-21.504-38.912-18.432-61.44l75.776-490.496c6.144-37.888 37.888-66.56 76.8-66.56h687.104c38.912 0 71.68 27.648 76.8 66.56l75.776 490.496c5.12 22.528-2.048 45.056-16.384 62.464zM951.296 526.848c5.12-6.144 7.168-13.312 6.144-21.504l-19.456-128h-217.088l16.384 158.72h193.536c8.192 0 15.36-4.096 20.48-9.216zM907.264 182.784h-206.848l15.36 143.36h214.016l-22.528-143.36zM393.216-7.68l-14.336 139.264h265.216l-14.336-139.264h-236.544zM372.736 182.784l-15.36 143.36h305.152l-15.36-143.36h-274.432zM93.184 326.144h214.016l15.36-143.36h-206.848l-22.528 143.36zM686.080 536.064l-16.384-158.72h-316.416l-16.384 158.72h349.184zM71.68 526.848c5.12 6.144 12.288 9.216 20.48 9.216h192.512l16.384-158.72h-216.064l-19.456 126.976c-1.024 8.192 1.024 16.384 6.144 22.528zM141.312 14.848l-18.432 116.736h203.776l14.336-139.264h-174.080c-12.288 0-23.552 9.216-25.6 22.528zM855.040-7.68h-174.080l14.336 139.264h204.8l-18.432-116.736c-2.048-13.312-13.312-22.528-26.624-22.528z" />
<glyph unicode="&#xe905;" glyph-name="close" d="M1008.64 947.712c-2.048 2.048-5.12 2.048-7.168 0l-490.496-492.544-486.4 490.496c-2.048 2.048-5.12 2.048-7.168 0s-2.048-5.12-1.024-7.168l487.424-491.52-488.448-491.52c-2.048-2.048-2.048-5.12 0-7.168 1.024-1.024 2.048-1.024 4.096-1.024 1.024 0 3.072 0 4.096 1.024l488.448 491.52 488.448-492.544c1.024-1.024 2.048-1.024 4.096-1.024 1.024 0 3.072 0 4.096 1.024 2.048 2.048 2.048 5.12 0 7.168l-490.496 493.568 490.496 492.544c2.048 1.024 2.048 5.12 0 7.168zM1004.544-62.976c-3.072 0-7.168 0-11.264 4.096l-481.28 485.376-481.28-484.352c-4.096-4.096-9.216-4.096-11.264-4.096-3.072 0-7.168 0-11.264 4.096-3.072 3.072-4.096 6.144-4.096 10.24s2.048 8.192 4.096 10.24l481.28 484.352-481.28 485.376-1.024 2.048c-3.072 6.144-2.048 13.312 3.072 18.432 6.144 6.144 15.36 6.144 21.504 0l479.232-483.328 483.328 485.376c6.144 6.144 15.36 6.144 21.504 0v0c3.072-3.072 5.12-8.192 4.096-13.312-1.024-3.072-2.048-6.144-5.12-8.192l-482.304-485.376 483.328-486.4c3.072-3.072 4.096-6.144 4.096-10.24s-2.048-8.192-4.096-10.24c-4.096-4.096-9.216-4.096-11.264-4.096zM1001.472-52.736c0 0 0 0 0 0v0zM22.528-51.712v0c0 0 0 0 0 0z" />
<glyph unicode="&#xe906;" glyph-name="digg" d="M709.632 620.032h-256c-8.192 0-15.36-6.144-15.36-15.36v-334.848c0-8.192 6.144-15.36 15.36-15.36h142.336v-10.24h-142.336c-8.192 0-15.36-6.144-15.36-15.36v-78.848c0-8.192 6.144-15.36 15.36-15.36h256c8.192 0 15.36 6.144 15.36 15.36v455.68c-1.024 8.192-8.192 14.336-15.36 14.336zM625.664 230.912v39.936c0 8.192-6.144 15.36-15.36 15.36h-142.336v304.128h226.304v-422.912h-226.304v49.152h142.336c9.216-1.024 15.36 6.144 15.36 14.336zM1004.544 620.032h-256c-8.192 0-15.36-6.144-15.36-15.36v-334.848c0-8.192 6.144-15.36 15.36-15.36h142.336v-10.24h-141.312c-8.192 0-15.36-6.144-15.36-15.36v-78.848c0-8.192 6.144-15.36 15.36-15.36h256c8.192 0 15.36 6.144 15.36 15.36v455.68c-1.024 8.192-7.168 14.336-16.384 14.336zM921.6 230.912v39.936c0 8.192-6.144 15.36-15.36 15.36h-142.336v304.128h226.304v-422.912h-226.304v49.152h142.336c9.216-1.024 15.36 6.144 15.36 14.336zM275.456 758.272h-98.304c-8.192 0-15.36-6.144-15.36-15.36v-122.88h-142.336c-8.192 0-15.36-6.144-15.36-15.36v-335.872c0-8.192 6.144-15.36 15.36-15.36h252.928c12.288 0 18.432 7.168 18.432 18.432v471.040l-1.024 2.048c-3.072 10.24-9.216 13.312-14.336 13.312zM33.792 285.184v305.152h142.336c8.192 0 15.36 6.144 15.36 15.36v122.88h68.608v-443.392h-226.304zM413.696 620.032h-97.28c-8.192 0-15.36-6.144-15.36-15.36v-334.848c0-8.192 6.144-15.36 15.36-15.36h97.28c8.192 0 15.36 6.144 15.36 15.36v335.872c-1.024 8.192-8.192 14.336-15.36 14.336zM330.752 285.184v305.152h67.584v-305.152h-67.584zM413.696 758.272h-98.304c-8.192 0-15.36-6.144-15.36-15.36v-97.28c0-8.192 6.144-15.36 15.36-15.36h98.304c8.192 0 15.36 6.144 15.36 15.36v97.28c-1.024 8.192-8.192 15.36-15.36 15.36zM329.728 659.968v67.584h68.608v-67.584h-68.608zM625.664 526.848c0 8.192-6.144 15.36-15.36 15.36h-58.368c-8.192 0-15.36-6.144-15.36-15.36v-177.152c0-8.192 6.144-15.36 15.36-15.36h58.368c8.192 0 15.36 6.144 15.36 15.36v177.152zM566.272 364.032v147.456h28.672v-147.456h-28.672zM921.6 527.872c0 8.192-7.168 14.336-15.36 14.336h-58.368c-8.192 0-15.36-6.144-15.36-15.36v-174.080c0-11.264 7.168-18.432 18.432-18.432h53.248c10.24 0 18.432 7.168 18.432 18.432v175.104zM862.208 511.488h29.696v-147.456h-28.672c-1.024 49.152-1.024 99.328-1.024 147.456zM173.056 541.184h-54.272c-10.24 0-18.432-7.168-18.432-18.432v-172.032c0-10.24 7.168-18.432 18.432-18.432h56.32c8.192 0 15.36 6.144 15.36 15.36v176.128c1.024 10.24-6.144 17.408-17.408 17.408zM131.072 364.032v148.48h29.696v-148.48h-29.696z" />
<glyph unicode="&#xe907;" glyph-name="download" d="M494.592 58.88c5.12-5.12 12.288-8.192 19.456-8.192 0 0 0 0 0 0 7.168 0 14.336 3.072 19.456 9.216l200.704 232.448c9.216 10.24 8.192 26.624-3.072 35.84-10.24 9.216-26.624 8.192-35.84-3.072l-157.696-183.296v789.504c0 14.336-11.264 25.6-25.6 25.6s-25.6-11.264-25.6-25.6v-785.408l-157.696 179.2c-9.216 10.24-25.6 11.264-35.84 2.048s-11.264-25.6-2.048-35.84l203.776-232.448zM1002.496 282.112c-14.336 0-25.6-11.264-25.6-25.6v-210.944c0-31.744-25.6-57.344-57.344-57.344h-815.104c-31.744 0-57.344 25.6-57.344 57.344v210.944c0 14.336-11.264 25.6-25.6 25.6s-25.6-11.264-25.6-25.6v-210.944c0-59.392 49.152-108.544 108.544-108.544h816.128c59.392 0 108.544 49.152 108.544 108.544v210.944c-1.024 14.336-12.288 25.6-26.624 25.6z" />
<glyph unicode="&#xe908;" glyph-name="email" d="M972.8 754.176c-48.128 89.088-153.6 198.656-388.096 206.848-151.552 6.144-287.744-44.032-394.24-146.432-112.64-109.568-186.368-276.48-186.368-424.96 0-114.688 62.464-282.624 198.656-378.88 73.728-51.2 160.768-76.8 259.072-76.8 82.944 0 174.080 18.432 269.312 54.272 5.12 2.048 8.192 7.168 6.144 13.312l-3.072 9.216c-1.024 3.072-3.072 5.12-5.12 6.144s-5.12 1.024-8.192 0c-205.824-75.776-373.76-68.608-500.736 20.48-146.432 101.376-185.344 275.456-185.344 352.256 0 141.312 69.632 299.008 177.152 401.408 99.328 96.256 228.352 144.384 371.712 139.264 221.184-9.216 319.488-108.544 362.496-191.488 75.776-141.312 41.984-316.416-21.504-419.84-69.632-112.64-165.888-86.016-194.56-75.776-50.176 19.456-79.872 56.32-76.8 76.8 2.048 13.312 7.168 40.96 14.336 73.728 0 1.024 0 1.024 1.024 1.024 1.024 1.024 2.048 3.072 2.048 6.144 0 1.024 0 2.048 0 3.072 3.072 16.384 6.144 32.768 10.24 51.2 4.096 19.456 7.168 40.96 12.288 60.416 0 1.024 0 1.024 0 2.048v3.072c3.072 13.312 28.672 143.36 28.672 148.48s-3.072 9.216-8.192 10.24l-10.24 2.048c-3.072 1.024-6.144 0-8.192-2.048s-3.072-4.096-4.096-7.168c0-2.048-3.072-15.36-6.144-32.768-2.048-12.288-5.12-27.648-9.216-45.056-5.12 9.216-10.24 17.408-16.384 24.576-20.48 24.576-58.368 54.272-126.976 54.272-131.072 0-224.256-141.312-228.352-273.408-3.072-102.4 46.080-168.96 130.048-173.056h9.216c80.896 0 141.312 53.248 180.224 101.376 0 0 0 0 0 0-7.168-38.912 34.816-87.040 95.232-110.592 23.552-9.216 147.456-49.152 231.424 88.064 68.608 108.544 104.448 295.936 22.528 448.512zM531.456 641.536c45.056 0 78.848-14.336 102.4-41.984 22.528-27.648 28.672-60.416 26.624-73.728l-5.12-27.648c-6.144-32.768-13.312-65.536-17.408-94.208-25.6-48.128-96.256-153.6-203.776-147.456-96.256 5.12-100.352 109.568-99.328 141.312 3.072 117.76 82.944 243.712 196.608 243.712z" />
<glyph unicode="&#xe909;" glyph-name="facebook" d="M738.304 955.904h-192.512c-26.624 0-48.128-8.192-63.488-24.576-22.528-24.576-23.552-58.368-22.528-71.68v-316.416h-182.272c-8.192 0-15.36-6.144-15.36-15.36 0-8.192 6.144-15.36 15.36-15.36h181.248v-558.080c0-8.192 6.144-15.36 15.36-15.36 8.192 0 15.36 6.144 15.36 15.36v558.080h174.080c8.192 0 15.36 6.144 15.36 15.36 0 8.192-6.144 15.36-15.36 15.36h-174.080v317.44c0 0-2.048 31.744 14.336 49.152 9.216 10.24 22.528 15.36 40.96 15.36h192.512c8.192 0 15.36 6.144 15.36 15.36 0 10.24-7.168 15.36-14.336 15.36z" />
<glyph unicode="&#xe90a;" glyph-name="FF-left" d="M976.896-59.904c-4.096 0-8.192 2.048-10.24 4.096l-415.744 423.936v-412.672c0-6.144-4.096-11.264-9.216-13.312s-12.288-1.024-16.384 3.072l-488.448 495.616c-6.144 6.144-6.144 15.36 0 20.48l488.448 490.496c4.096 4.096 10.24 5.12 16.384 3.072 5.12-2.048 9.216-8.192 9.216-13.312v-407.552l415.744 417.792c4.096 4.096 10.24 5.12 16.384 3.072 5.12-2.048 9.216-8.192 9.216-13.312v-986.112c0-6.144-4.096-11.264-9.216-13.312-2.048-2.048-4.096-2.048-6.144-2.048zM67.584 451.072l452.608-460.8v413.696c0 6.144 4.096 11.264 9.216 13.312s12.288 1.024 16.384-3.072l416.768-422.912v914.432l-416.768-418.816c-4.096-4.096-10.24-5.12-16.384-3.072-5.12 2.048-9.216 8.192-9.216 13.312v408.576l-452.608-454.656z" />
<glyph unicode="&#xe90b;" glyph-name="FF-right" d="M55.296-59.904c-2.048 0-4.096 0-5.12 1.024-5.12 2.048-9.216 8.192-9.216 13.312v987.136c0 6.144 4.096 11.264 9.216 13.312s11.264 1.024 15.36-3.072l415.744-417.792v407.552c0 6.144 4.096 11.264 9.216 13.312s12.288 1.024 16.384-3.072l488.448-489.472c6.144-6.144 6.144-15.36 0-20.48l-488.448-497.664c-4.096-4.096-10.24-5.12-16.384-3.072-5.12 2.048-9.216 8.192-9.216 13.312v413.696l-415.744-423.936c-3.072-3.072-6.144-4.096-10.24-4.096zM496.64 419.328c2.048 0 4.096 0 5.12-1.024 5.12-2.048 9.216-8.192 9.216-13.312v-412.672l452.608 460.8-452.608 452.608v-407.552c0-6.144-4.096-11.264-9.216-13.312s-12.288-1.024-16.384 3.072l-415.744 417.792v-914.432l415.744 422.912c3.072 3.072 7.168 5.12 11.264 5.12z" />
<glyph unicode="&#xe90c;" glyph-name="flikr" d="M836.608 955.904h-649.216c-101.376 0-183.296-82.944-183.296-184.32v-647.168c0-101.376 81.92-184.32 183.296-184.32h649.216c101.376 0 183.296 82.944 183.296 184.32v647.168c0 101.376-81.92 184.32-183.296 184.32zM187.392 926.208h649.216c84.992 0 153.6-69.632 153.6-154.624v-647.168c0-84.992-68.608-154.624-153.6-154.624h-649.216c-84.992 0-153.6 69.632-153.6 154.624v647.168c0 84.992 68.608 154.624 153.6 154.624zM328.704 307.712c84.992 0 153.6 68.608 153.6 152.576s-68.608 151.552-153.6 151.552c-83.968 0-152.576-68.608-152.576-152.576s68.608-151.552 152.576-151.552zM328.704 336.384c-67.584 0-122.88 55.296-122.88 122.88s55.296 122.88 122.88 122.88c68.608 0 123.904-54.272 123.904-121.856 0-68.608-55.296-123.904-123.904-123.904zM716.8 307.712c83.968 0 152.576 68.608 152.576 152.576 0 39.936-14.336 78.848-43.008 107.52s-67.584 44.032-109.568 44.032c-83.968 0-152.576-68.608-152.576-152.576s68.608-151.552 152.576-151.552zM716.8 581.12c67.584 0 122.88-55.296 122.88-122.88s-55.296-122.88-122.88-122.88-122.88 55.296-122.88 122.88c1.024 68.608 55.296 122.88 122.88 122.88z" />
<glyph unicode="&#xe90d;" glyph-name="fullscreen" d="M403.456 955.904h-382.976c-8.192 0-15.36-6.144-15.36-15.36v-382.976c0-8.192 6.144-15.36 15.36-15.36s15.36 6.144 15.36 15.36v368.64h368.64c8.192 0 15.36 6.144 15.36 15.36-1.024 8.192-9.216 14.336-16.384 14.336zM403.456-29.184h-368.64v368.64c0 8.192-6.144 15.36-15.36 15.36s-15.36-6.144-15.36-15.36v-382.976c0-8.192 6.144-15.36 15.36-15.36h382.976c8.192 0 15.36 6.144 15.36 15.36 1.024 8.192-7.168 14.336-14.336 14.336zM1003.52 955.904h-382.976c-8.192 0-15.36-6.144-15.36-15.36s8.192-15.36 15.36-15.36h368.64v-368.64c0-8.192 6.144-15.36 15.36-15.36s15.36 6.144 15.36 15.36v384c-1.024 8.192-8.192 15.36-16.384 15.36zM1003.52 352.768c-8.192 0-15.36-6.144-15.36-15.36v-368.64h-368.64c-8.192 0-15.36-6.144-15.36-15.36 0-8.192 6.144-15.36 15.36-15.36h384c8.192 0 15.36 6.144 15.36 15.36v384c0 8.192-7.168 15.36-15.36 15.36z" />
<glyph unicode="&#xe90e;" glyph-name="google-plus" d="M538.624 680.448c0 117.76-96.256 214.016-214.016 214.016-118.784 0-215.040-96.256-215.040-214.016 0-111.616 86.016-204.8 196.608-214.016 10.24-18.432 38.912-82.944 8.192-143.36-12.288 1.024-25.6 2.048-38.912 2.048-145.408 0-264.192-86.016-264.192-192.512s118.784-192.512 264.192-192.512 263.168 88.064 263.168 194.56c0 88.064-78.848 162.816-192.512 185.344 19.456 43.008 17.408 94.208-5.12 147.456 109.568 8.192 197.632 100.352 197.632 212.992zM274.432-27.136c-129.024 0-233.472 72.704-233.472 161.792s104.448 161.792 233.472 161.792 233.472-72.704 233.472-161.792-105.472-161.792-233.472-161.792zM322.56 864.768c101.376 0 183.296-81.92 183.296-183.296s-81.92-184.32-183.296-184.32-183.296 81.92-183.296 183.296c0 102.4 82.944 184.32 183.296 184.32zM999.424 764.416h-179.2v174.080c0 9.216-6.144 15.36-15.36 15.36s-15.36-8.192-15.36-15.36v-174.080h-178.176c-9.216 0-15.36-6.144-15.36-15.36s6.144-15.36 15.36-15.36h177.152v-184.32c0-9.216 6.144-15.36 15.36-15.36s15.36 6.144 15.36 15.36v184.32h179.2c9.216 0 15.36 6.144 15.36 15.36s-6.144 15.36-14.336 15.36z" />
<glyph unicode="&#xe90f;" glyph-name="instagram" d="M925.696 955.904h-827.392c-52.224 0-94.208-41.984-94.208-94.208v-826.368c0-52.224 41.984-94.208 94.208-94.208h826.368c52.224 0 94.208 41.984 94.208 94.208v826.368c1.024 52.224-40.96 94.208-93.184 94.208zM925.696-30.208h-827.392c-34.816 0-64.512 29.696-64.512 64.512v827.392c0 34.816 29.696 64.512 64.512 64.512h826.368c34.816 0 64.512-29.696 64.512-64.512v-826.368c1.024-35.84-28.672-65.536-63.488-65.536zM510.976 654.848c-142.336 0-258.048-115.712-258.048-258.048 1.024-142.336 116.736-258.048 258.048-258.048 142.336 0 258.048 115.712 258.048 258.048s-115.712 258.048-258.048 258.048zM510.976 625.152c125.952 0 228.352-102.4 228.352-228.352s-102.4-228.352-228.352-228.352c-125.952 0-228.352 102.4-228.352 228.352s102.4 228.352 228.352 228.352zM735.232 803.328c-51.2 0-93.184-41.984-93.184-93.184s41.984-93.184 93.184-93.184c51.2 0 93.184 41.984 93.184 93.184s-41.984 93.184-93.184 93.184zM735.232 647.68c-34.816 0-63.488 28.672-63.488 63.488s28.672 63.488 63.488 63.488c34.816 0 63.488-28.672 63.488-63.488s-28.672-63.488-63.488-63.488z" />
<glyph unicode="&#xe910;" glyph-name="link" d="M915.456 841.216c-22.528 24.576-54.272 36.864-89.088 36.864-33.792 0-65.536-13.312-90.112-36.864l-133.12-133.12c-23.552-23.552-36.864-56.32-36.864-90.112 0-14.336 3.072-26.624 7.168-40.96l9.216-21.504 106.496 105.472c3.072 3.072 8.192 5.12 13.312 5.12 4.096 0 9.216-2.048 13.312-6.144 3.072-3.072 5.12-8.192 5.12-13.312s-2.048-10.24-5.12-13.312l-110.592-109.568 15.36-9.216c20.48-14.336 46.080-21.504 70.656-21.504 33.792 0 65.536 13.312 90.112 36.864l134.144 133.12c23.552 23.552 36.864 56.32 36.864 90.112s-13.312 64.512-36.864 88.064zM737.28 609.792c19.456 19.456 19.456 50.176 0 69.632-8.192 10.24-21.504 15.36-34.816 15.36s-26.624-5.12-34.816-14.336l-70.656-70.656c0 2.048 0 5.12 0 8.192 0 25.6 10.24 50.176 28.672 68.608l132.096 135.168c18.432 18.432 43.008 28.672 68.608 28.672s49.152-10.24 67.584-28.672c18.432-18.432 28.672-43.008 28.672-68.608s-10.24-50.176-28.672-68.608l-134.144-134.144c-18.432-18.432-43.008-28.672-68.608-28.672-13.312 0-25.6 3.072-36.864 7.168l82.944 80.896zM963.584 890.368c-35.84 36.864-84.992 57.344-137.216 57.344s-101.376-20.48-138.24-57.344l-134.144-133.12c-36.864-36.864-57.344-86.016-57.344-138.24 0-28.672 7.168-57.344 19.456-86.016l-88.064-87.040c-29.696 16.384-62.464 25.6-96.256 25.6-52.224 0-101.376-20.48-138.24-57.344l-132.096-133.12c-36.864-36.864-57.344-86.016-57.344-138.24s20.48-101.376 57.344-138.24c35.84-35.84 84.992-56.32 137.216-56.32s101.376 20.48 138.24 57.344l134.144 133.12c36.864 36.864 57.344 86.016 57.344 138.24 0 35.84-9.216 70.656-27.648 100.352l81.92 80.896c32.768-22.528 70.656-33.792 109.568-33.792 52.224 0 101.376 20.48 138.24 57.344l133.12 133.12c36.864 36.864 57.344 86.016 57.344 138.24 0 50.176-19.456 99.328-57.344 137.216zM692.224 453.12c-37.888 0-72.704 12.288-102.4 35.84l-9.216 9.216-119.808-117.76 7.168-10.24c19.456-27.648 29.696-60.416 29.696-94.208 0-45.056-16.384-84.992-48.128-116.736l-134.144-133.12c-30.72-30.72-72.704-48.128-116.736-48.128-43.008 0-84.992 17.408-115.712 48.128s-48.128 72.704-48.128 116.736c0 45.056 16.384 84.992 48.128 116.736l134.144 134.144c30.72 30.72 72.704 48.128 116.736 48.128 32.768 0 63.488-9.216 90.112-27.648l10.24-6.144 121.856 120.832-6.144 9.216c-13.312 25.6-20.48 53.248-20.48 80.896 0 44.032 17.408 86.016 48.128 116.736l132.096 134.144c30.72 30.72 72.704 48.128 116.736 48.128s84.992-17.408 115.712-48.128c30.72-30.72 48.128-72.704 48.128-116.736 0-45.056-16.384-84.992-48.128-116.736l-133.12-135.168c-30.72-30.72-72.704-48.128-116.736-48.128zM435.2 356.864l-103.424-102.4c-7.168-7.168-20.48-6.144-26.624-1.024-4.096 5.12-6.144 9.216-6.144 14.336 0 4.096 2.048 9.216 6.144 13.312l101.376 100.352-19.456 9.216c-52.224 22.528-107.52 11.264-144.384-25.6l-134.144-133.12c-23.552-23.552-36.864-56.32-36.864-90.112s13.312-65.536 36.864-89.088c22.528-24.576 54.272-36.864 89.088-36.864 33.792 0 65.536 13.312 90.112 36.864l134.144 135.168c23.552 23.552 36.864 56.32 36.864 90.112 0 20.48-5.12 40.96-15.36 59.392l-8.192 19.456zM284.672 302.592c-10.24-8.192-15.36-21.504-15.36-34.816s5.12-26.624 14.336-34.816c9.216-9.216 22.528-15.36 34.816-15.36 13.312 0 25.6 5.12 33.792 14.336l72.704 71.68c2.048-8.192 4.096-17.408 4.096-26.624 0-25.6-10.24-50.176-28.672-68.608l-134.144-134.144c-18.432-18.432-43.008-28.672-68.608-28.672s-49.152 10.24-67.584 28.672c-17.408 18.432-27.648 43.008-27.648 68.608s10.24 50.176 28.672 68.608l134.144 134.144c18.432 18.432 43.008 28.672 68.608 28.672 6.144 0 13.312-1.024 20.48-2.048l-69.632-69.632z" />
<glyph unicode="&#xe911;" glyph-name="linkedin" d="M144.384 952.832c-8.192 0-15.36-6.144-15.36-15.36v-212.992c0-8.192 6.144-15.36 15.36-15.36s15.36 6.144 15.36 15.36v214.016c-1.024 8.192-7.168 14.336-15.36 14.336zM144.384 601.6c-8.192 0-15.36-6.144-15.36-15.36v-634.88c0-8.192 6.144-15.36 15.36-15.36s15.36 6.144 15.36 15.36v634.88c-1.024 9.216-7.168 15.36-15.36 15.36zM671.744 572.928c-118.784 0-196.608-43.008-236.544-90.112v104.448c0 8.192-6.144 15.36-15.36 15.36s-15.36-6.144-15.36-15.36v-634.88c0-8.192 6.144-15.36 15.36-15.36s15.36 6.144 15.36 15.36v468.992c1.024 15.36 52.224 120.832 236.544 120.832 160.768 0 190.464-112.64 193.536-124.928v-464.896c0-8.192 6.144-15.36 15.36-15.36 8.192 0 15.36 6.144 15.36 15.36v467.968c-1.024 1.024-31.744 152.576-224.256 152.576z" />
<glyph unicode="&#xe912;" glyph-name="loop" d="M851.968 825.856h151.552c14.336 0 25.6 11.264 25.6 25.6s-11.264 25.6-25.6 25.6h-230.4c-14.336 0-25.6-11.264-25.6-25.6v-236.544c0-14.336 11.264-25.6 25.6-25.6s25.6 12.288 25.6 25.6v188.416c109.568-87.040 174.080-219.136 174.080-360.448 0-252.928-205.824-458.752-458.752-458.752s-458.752 205.824-458.752 458.752 205.824 459.776 458.752 459.776c14.336 0 25.6 11.264 25.6 25.6s-11.264 25.6-25.6 25.6c-281.6 0-509.952-229.376-509.952-509.952s229.376-509.952 509.952-509.952c281.6 0 509.952 229.376 509.952 509.952 0 147.456-63.488 285.696-172.032 381.952z" />
<glyph unicode="&#xe913;" glyph-name="music" d="M1017.856 944.64c-1.024 2.048-2.048 4.096-5.12 6.144-4.096 3.072-8.192 3.072-10.24 3.072l-680.96-108.544c-7.168-1.024-13.312-7.168-13.312-15.36v-670.72c-30.72 35.84-81.92 59.392-137.216 59.392-92.16 0-166.912-62.464-166.912-138.24s74.752-138.24 166.912-138.24c86.016 0 156.672 53.248 165.888 123.904 1.024 3.072 1.024 5.12 1.024 6.144v533.504l650.24 104.448v-466.944c-30.72 36.864-80.896 59.392-136.192 59.392-91.136 0-164.864-62.464-164.864-138.24s73.728-138.24 164.864-138.24c89.088 0 160.768 57.344 164.864 130.048 1.024 2.048 2.048 4.096 2.048 8.192v778.24l-1.024 2.048zM852.992 58.88c-74.752 0-135.168 48.128-135.168 107.52s60.416 107.52 135.168 107.52c74.752 0 135.168-48.128 135.168-106.496-1.024-60.416-61.44-108.544-135.168-108.544zM989.184 921.088v-179.2l-651.264-104.448v179.2l651.264 104.448zM171.008 186.88c75.776 0 137.216-48.128 137.216-106.496-1.024-59.392-62.464-107.52-137.216-107.52-75.776 0-137.216 48.128-137.216 107.52 0 58.368 61.44 106.496 137.216 106.496z" />
<glyph unicode="&#xe914;" glyph-name="normalscreen" d="M353.28 949.76c-9.216 0-15.36-6.144-15.36-14.336v-330.752h-315.392c-8.192 0-15.36-6.144-15.36-15.36 0-8.192 6.144-15.36 15.36-15.36h330.752c8.192 0 15.36 6.144 15.36 15.36v346.112c-1.024 8.192-8.192 14.336-15.36 14.336zM676.864 574.976h330.752c8.192 0 15.36 6.144 15.36 15.36s-6.144 15.36-15.36 15.36h-315.392v329.728c0 8.192-6.144 14.336-15.36 14.336-8.192 0-15.36-6.144-15.36-15.36v-346.112c1.024-7.168 7.168-13.312 15.36-13.312zM353.28 320h-330.752c-8.192 0-15.36-6.144-15.36-15.36 0-8.192 6.144-15.36 15.36-15.36h315.392v-330.752c0-8.192 6.144-15.36 15.36-15.36s15.36 6.144 15.36 15.36v346.112c-1.024 9.216-8.192 15.36-15.36 15.36zM1007.616 320h-330.752c-8.192 0-15.36-6.144-15.36-15.36v-346.112c0-8.192 6.144-15.36 15.36-15.36 8.192 0 15.36 6.144 15.36 15.36v331.776h316.416c8.192 0 15.36 6.144 15.36 15.36-1.024 8.192-7.168 14.336-16.384 14.336z" />
<glyph unicode="&#xe915;" glyph-name="pause" d="M374.784 955.904c-8.192 0-15.36-6.144-15.36-15.36v-986.112c0-8.192 6.144-15.36 15.36-15.36 8.192 0 15.36 6.144 15.36 15.36v986.112c0 9.216-6.144 15.36-15.36 15.36zM702.464 955.904c-8.192 0-15.36-6.144-15.36-15.36v-986.112c0-8.192 6.144-15.36 15.36-15.36s14.336 7.168 14.336 16.384v985.088c0 9.216-6.144 15.36-14.336 15.36z" />
<glyph unicode="&#xe916;" glyph-name="play" d="M786.432 462.336l-487.424 489.472c-4.096 4.096-11.264 5.12-16.384 3.072-5.12-3.072-8.192-8.192-8.192-14.336v-986.112c0-6.144 3.072-11.264 8.192-14.336l2.048-1.024h4.096c4.096 0 9.216 2.048 11.264 6.144l486.4 494.592c3.072 3.072 4.096 6.144 4.096 10.24 0 5.12-1.024 9.216-4.096 12.288zM303.104-8.704v913.408l451.584-453.632-451.584-459.776z" />
<glyph unicode="&#xe917;" glyph-name="playlist" d="M953.344 952.832h-650.24c-37.888 0-67.584-30.72-67.584-67.584v-37.888c0-37.888 30.72-67.584 67.584-67.584h649.216c37.888 0 67.584 30.72 67.584 67.584v37.888c1.024 36.864-29.696 67.584-66.56 67.584zM969.728 847.36c0-9.216-7.168-16.384-16.384-16.384h-650.24c-9.216 0-16.384 7.168-16.384 16.384v37.888c0 9.216 7.168 16.384 16.384 16.384h649.216c9.216 0 16.384-7.168 16.384-16.384v-37.888zM106.496 952.832h-34.816c-37.888 0-67.584-30.72-67.584-67.584v-37.888c0-37.888 30.72-67.584 67.584-67.584h34.816c37.888 0 67.584 30.72 67.584 67.584v37.888c0 36.864-29.696 67.584-67.584 67.584zM122.88 847.36c0-9.216-7.168-16.384-16.384-16.384h-34.816c-9.216 0-16.384 7.168-16.384 16.384v37.888c0 9.216 7.168 16.384 16.384 16.384h34.816c9.216 0 16.384-7.168 16.384-16.384v-37.888zM953.344 673.28h-650.24c-37.888 0-67.584-30.72-67.584-67.584v-36.864c0-37.888 30.72-67.584 67.584-67.584h649.216c37.888 0 67.584 30.72 67.584 67.584v36.864c1.024 37.888-29.696 67.584-66.56 67.584zM969.728 568.832c0-9.216-7.168-16.384-16.384-16.384h-650.24c-9.216 0-16.384 7.168-16.384 16.384v36.864c0 9.216 7.168 16.384 16.384 16.384h649.216c9.216 0 16.384-7.168 16.384-16.384v-36.864zM106.496 673.28h-34.816c-37.888 0-67.584-30.72-67.584-67.584v-36.864c0-37.888 30.72-67.584 67.584-67.584h34.816c37.888 0 67.584 30.72 67.584 67.584v36.864c0 37.888-29.696 67.584-67.584 67.584zM122.88 568.832c0-9.216-7.168-16.384-16.384-16.384h-34.816c-9.216 0-16.384 7.168-16.384 16.384v36.864c-1.024 9.216 7.168 16.384 16.384 16.384h34.816c9.216 0 16.384-7.168 16.384-16.384v-36.864zM953.344 394.752h-650.24c-37.888 0-67.584-30.72-67.584-67.584v-36.864c0-37.888 30.72-67.584 67.584-67.584h649.216c37.888 0 67.584 30.72 67.584 67.584v36.864c1.024 36.864-29.696 67.584-66.56 67.584zM969.728 289.28c0-9.216-7.168-16.384-16.384-16.384h-650.24c-9.216 0-16.384 7.168-16.384 16.384v36.864c0 9.216 7.168 16.384 16.384 16.384h649.216c9.216 0 16.384-7.168 16.384-16.384v-36.864zM106.496 394.752h-34.816c-37.888 0-67.584-30.72-67.584-67.584v-36.864c0-37.888 30.72-67.584 67.584-67.584h34.816c37.888 0 67.584 30.72 67.584 67.584v36.864c0 36.864-29.696 67.584-67.584 67.584zM122.88 289.28c0-9.216-7.168-16.384-16.384-16.384h-34.816c-9.216 0-16.384 7.168-16.384 16.384v36.864c0 9.216 7.168 16.384 16.384 16.384h34.816c9.216 0 16.384-7.168 16.384-16.384v-36.864zM953.344 115.2h-650.24c-37.888 0-67.584-30.72-67.584-67.584v-36.864c0-37.888 30.72-67.584 67.584-67.584h649.216c37.888 0 67.584 30.72 67.584 67.584v36.864c1.024 36.864-29.696 67.584-66.56 67.584zM969.728 9.728c0-9.216-7.168-16.384-16.384-16.384h-650.24c-9.216 0-16.384 7.168-16.384 16.384v36.864c0 9.216 7.168 16.384 16.384 16.384h649.216c9.216 0 16.384-7.168 16.384-16.384v-36.864zM106.496 115.2h-34.816c-37.888 0-67.584-30.72-67.584-67.584v-36.864c0-37.888 30.72-67.584 67.584-67.584h34.816c37.888 0 67.584 30.72 67.584 67.584v36.864c0 36.864-29.696 67.584-67.584 67.584zM122.88 9.728c0-9.216-7.168-16.384-16.384-16.384h-34.816c-9.216 0-16.384 7.168-16.384 16.384v36.864c0 9.216 7.168 16.384 16.384 16.384h34.816c9.216 0 16.384-7.168 16.384-16.384v-36.864z" />
<glyph unicode="&#xe918;" glyph-name="playlists" d="M731.136 750.080h-667.648c-35.84 0-64.512-28.672-64.512-64.512v-686.080c0-35.84 28.672-64.512 64.512-64.512h667.648c35.84 0 64.512 28.672 64.512 64.512v686.080c1.024 34.816-28.672 64.512-64.512 64.512zM745.472-1.536c0-7.168-6.144-13.312-13.312-13.312h-668.672c-7.168 0-13.312 6.144-13.312 13.312v686.080c0 7.168 6.144 13.312 13.312 13.312h667.648c7.168 0 13.312-6.144 13.312-13.312v-686.080zM772.096 856.576h-625.664c-14.336 0-25.6-11.264-25.6-25.6s11.264-25.6 25.6-25.6h625.664c50.176 0 91.136-39.936 91.136-88.064v-660.48c0-14.336 11.264-25.6 25.6-25.6s25.6 11.264 25.6 25.6v660.48c0 76.8-63.488 139.264-142.336 139.264zM802.816 956.928h-534.528c-14.336 0-25.6-11.264-25.6-25.6s11.264-25.6 25.6-25.6h534.528c93.184 0 169.984-73.728 169.984-163.84v-609.28c0-14.336 11.264-25.6 25.6-25.6s25.6 11.264 25.6 25.6v609.28c-1.024 118.784-99.328 215.040-221.184 215.040zM568.32 399.872l-215.040 174.080c-19.456 15.36-46.080 18.432-68.608 7.168s-36.864-33.792-36.864-58.368v-356.352c0-25.6 14.336-48.128 37.888-59.392 9.216-4.096 18.432-6.144 26.624-6.144 15.36 0 30.72 5.12 41.984 16.384l215.040 182.272c14.336 13.312 22.528 31.744 22.528 51.2s-9.216 36.864-23.552 49.152zM536.576 338.432l-215.040-182.272c-6.144-5.12-12.288-3.072-14.336-2.048s-8.192 4.096-8.192 12.288v356.352c0 8.192 5.12 11.264 8.192 12.288 1.024 1.024 4.096 1.024 6.144 1.024s5.12-1.024 8.192-3.072l215.040-174.080c4.096-3.072 5.12-8.192 5.12-10.24s-1.024-7.168-5.12-10.24z" />
<glyph unicode="&#xe919;" glyph-name="popup" d="M996.352 458.24c-14.336 0-25.6-11.264-25.6-25.6v-370.688c0-39.936-32.768-72.704-72.704-72.704h-772.096c-39.936 0-72.704 32.768-72.704 72.704v772.096c0 39.936 32.768 72.704 72.704 72.704h369.664c14.336 0 25.6 11.264 25.6 25.6s-11.264 25.6-25.6 25.6h-369.664c-68.608 0-123.904-55.296-123.904-123.904v-772.096c0-68.608 55.296-123.904 123.904-123.904h772.096c68.608 0 123.904 55.296 123.904 123.904v370.688c0 14.336-11.264 25.6-25.6 25.6zM898.048 957.952h-264.192c-14.336 0-25.6-11.264-25.6-25.6s11.264-25.6 25.6-25.6h264.192c11.264 0 21.504-3.072 30.72-7.168l-782.336-762.88c-10.24-10.24-10.24-25.6 0-35.84 5.12-5.12 11.264-8.192 18.432-8.192 6.144 0 13.312 2.048 17.408 7.168l782.336 762.88c4.096-9.216 6.144-18.432 6.144-28.672v-260.096c0-14.336 11.264-25.6 25.6-25.6s25.6 11.264 25.6 25.6v260.096c0 68.608-55.296 123.904-123.904 123.904z" />
<glyph unicode="&#xe91a;" glyph-name="reddit" d="M666.624 217.6c-143.36-93.184-295.936-7.168-306.176-1.024l-2.048 1.024c-7.168 3.072-15.36 1.024-19.456-5.12l-1.024-1.024c-3.072-7.168-1.024-15.36 5.12-19.456v0c12.288-8.192 87.040-48.128 178.176-48.128 57.344 0 112.64 16.384 162.816 47.104l2.048 1.024c6.144 6.144 7.168 14.336 2.048 20.48-6.144 8.192-14.336 10.24-21.504 5.12zM396.288 379.392c0 43.008-34.816 77.824-77.824 77.824s-77.824-34.816-77.824-77.824c0-44.032 33.792-77.824 77.824-77.824 43.008 0 77.824 34.816 77.824 77.824zM318.464 331.264c-26.624 0-48.128 21.504-48.128 48.128s21.504 48.128 48.128 48.128c26.624 0 48.128-21.504 48.128-48.128s-21.504-48.128-48.128-48.128zM705.536 457.216c-43.008 0-77.824-34.816-77.824-77.824 0-44.032 33.792-77.824 77.824-77.824s77.824 33.792 77.824 77.824c0 43.008-34.816 77.824-77.824 77.824zM705.536 427.52c26.624 0 48.128-21.504 48.128-48.128s-21.504-48.128-48.128-48.128c-26.624 0-48.128 21.504-48.128 48.128s21.504 48.128 48.128 48.128zM1019.904 506.368c0 62.464-51.2 112.64-112.64 112.64-51.2 0-95.232-34.816-108.544-82.944-76.8 49.152-175.104 75.776-278.528 76.8l102.4 223.232 158.72-32.768c0-1.024 0-3.072 0-4.096 0-50.176 39.936-90.112 90.112-90.112s90.112 39.936 90.112 90.112-39.936 90.112-90.112 90.112c-37.888 0-70.656-23.552-83.968-57.344l-183.296 38.912-119.808-257.024c-96.256-5.12-186.368-32.768-257.024-78.848-13.312 49.152-57.344 84.992-110.592 84.992-62.464 0-112.64-51.2-112.64-112.64 0-58.368 44.032-105.472 100.352-112.64-10.24-26.624-16.384-54.272-16.384-83.968 0-167.936 190.464-304.128 424.96-304.128s424.96 136.192 424.96 304.128c0 27.648-6.144 56.32-16.384 83.968 55.296 8.192 98.304 55.296 98.304 111.616zM514.048 36.352c-218.112 0-395.264 122.88-395.264 274.432 0 30.72 8.192 62.464 22.528 92.16 0 0 0 1.024 1.024 1.024 1.024 1.024 1.024 2.048 2.048 4.096 11.264 19.456 23.552 35.84 38.912 51.2l2.048 2.048 1.024 2.048c1.024 1.024 3.072 3.072 5.12 4.096l11.264 11.264c2.048 2.048 3.072 3.072 5.12 5.12l1.024 1.024c1.024 1.024 1.024 1.024 2.048 2.048s2.048 2.048 3.072 3.072c1.024 1.024 3.072 2.048 4.096 3.072s2.048 2.048 4.096 3.072c74.752 56.32 181.248 89.088 290.816 89.088s215.040-31.744 289.792-87.040c1.024-1.024 2.048-2.048 3.072-2.048 1.024-1.024 2.048-2.048 4.096-3.072 1.024-1.024 2.048-2.048 3.072-3.072s2.048-1.024 3.072-2.048c1.024-1.024 3.072-2.048 4.096-3.072 1.024 0 1.024-1.024 2.048-2.048l1.024-1.024c2.048-1.024 4.096-3.072 6.144-6.144l15.36-15.36c2.048-2.048 4.096-4.096 6.144-6.144 0 0 0 0 0 0v-1.024l2.048-3.072c11.264-13.312 20.48-26.624 28.672-39.936 1.024-1.024 2.048-2.048 2.048-3.072 1.024-1.024 2.048-3.072 2.048-4.096 15.36-28.672 22.528-59.392 22.528-92.16 2.048-152.576-176.128-274.432-394.24-274.432zM200.704 515.584c-36.864-28.672-63.488-59.392-81.92-93.184h-1.024c-47.104 1.024-82.944 37.888-82.944 83.968s36.864 82.944 82.944 82.944c43.008 0 78.848-32.768 82.944-73.728zM909.312 423.424c-20.48 35.84-49.152 68.608-84.992 95.232 6.144 40.96 40.96 71.68 82.944 71.68 46.080 0 82.944-36.864 82.944-82.944 0-44.032-36.864-81.92-80.896-83.968zM869.376 740.864c-32.768 0-60.416 27.648-60.416 60.416s26.624 60.416 60.416 60.416 60.416-26.624 60.416-60.416c0-32.768-27.648-60.416-60.416-60.416z" />
<glyph unicode="&#xe91b;" glyph-name="screen-maximise" d="M350.208-24.064h-299.008l304.128 317.44c6.144 6.144 6.144 15.36 0 21.504-4.096 4.096-8.192 4.096-10.24 4.096-4.096 0-8.192-2.048-11.264-5.12l-299.008-312.32v304.128c0 8.192-6.144 15.36-15.36 15.36-8.192 0-15.36-6.144-15.36-15.36v-346.112c0-1.024 0-2.048 0-3.072l-1.024-1.024h1.024c2.048-6.144 7.168-10.24 14.336-10.24h330.752c8.192 0 15.36 6.144 15.36 15.36s-6.144 15.36-14.336 15.36zM1018.88-43.52c0 1.024 0 3.072 0 4.096v345.088c0 8.192-6.144 15.36-15.36 15.36-8.192 0-15.36-6.144-15.36-15.36v-305.152l-297.984 313.344c-1.024 1.024-5.12 5.12-11.264 5.12-2.048 0-6.144 0-10.24-4.096-6.144-6.144-6.144-15.36 0-20.48l304.128-317.44h-299.008c-8.192 0-15.36-6.144-15.36-15.36s7.168-15.36 15.36-15.36h330.752c7.168 0 12.288 4.096 14.336 10.24v0 0zM19.456 574.976c8.192 0 15.36 6.144 15.36 15.36v308.224l300.032-313.344c6.144-6.144 15.36-6.144 21.504 0 3.072 3.072 4.096 6.144 4.096 10.24s-2.048 8.192-4.096 10.24l-302.080 314.368h294.912c8.192 0 15.36 6.144 15.36 15.36 0 8.192-6.144 15.36-15.36 15.36h-331.776c-2.048-1.024-3.072-1.024-5.12-2.048h-7.168v-2.048h-1.024v-355.328c0-9.216 7.168-16.384 15.36-16.384zM673.792 920.064h294.912l-300.032-313.344c-3.072-3.072-4.096-6.144-4.096-10.24s2.048-8.192 4.096-10.24c6.144-6.144 15.36-6.144 21.504 0l299.008 312.32v-309.248c0-8.192 6.144-15.36 15.36-15.36 8.192 0 15.36 6.144 15.36 15.36v346.112c0 8.192-6.144 15.36-15.36 15.36h-330.752c-8.192 0-15.36-6.144-15.36-15.36s7.168-15.36 15.36-15.36z" />
<glyph unicode="&#xe91c;" glyph-name="screen-minimise" d="M367.616 309.76c-2.048 6.144-8.192 10.24-14.336 10.24h-330.752c-8.192 0-15.36-6.144-15.36-15.36 0-8.192 6.144-15.36 15.36-15.36h300.032l-304.128-317.44c-6.144-6.144-6.144-15.36 0-21.504 4.096-4.096 8.192-4.096 10.24-4.096 4.096 0 8.192 2.048 11.264 5.12l297.984 313.344v-304.128c0-8.192 6.144-15.36 15.36-15.36s15.36 6.144 15.36 15.36v344.064c0 1.024 0 3.072-1.024 4.096l1.024 1.024h-1.024zM1007.616 320h-330.752c-7.168 0-12.288-4.096-14.336-10.24v0 0c0-1.024-1.024-3.072-1.024-5.12v-346.112c0-8.192 6.144-15.36 15.36-15.36 8.192 0 15.36 6.144 15.36 15.36v305.152l300.032-313.344c1.024-1.024 5.12-4.096 11.264-4.096 2.048 0 6.144 0 10.24 4.096 6.144 6.144 6.144 15.36 0 20.48l-304.128 319.488h299.008c8.192 0 15.36 6.144 15.36 15.36-1.024 8.192-7.168 14.336-16.384 14.336zM22.528 574.976h332.8c2.048 0 3.072 0 4.096 1.024h2.048l3.072 3.072 4.096 5.12v351.232c0 9.216-8.192 15.36-15.36 15.36-9.216-1.024-15.36-7.168-15.36-15.36v-308.224l-300.032 312.32c-5.12 6.144-15.36 6.144-20.48 0-3.072-2.048-5.12-6.144-5.12-10.24s2.048-8.192 4.096-10.24l301.056-314.368h-294.912c-8.192 0-15.36-6.144-15.36-15.36s6.144-14.336 15.36-14.336zM676.864 574.976h330.752c8.192 0 15.36 6.144 15.36 15.36s-6.144 15.36-15.36 15.36h-294.912l301.056 313.344c3.072 3.072 4.096 6.144 4.096 10.24s-2.048 8.192-4.096 10.24c-6.144 6.144-15.36 6.144-21.504 0l-300.032-312.32v308.224c0 8.192-6.144 14.336-15.36 14.336-8.192 0-15.36-6.144-15.36-15.36v-346.112c1.024-7.168 7.168-13.312 15.36-13.312z" />
<glyph unicode="&#xe91d;" glyph-name="scroll-down" d="M695.296 212.48l-157.696-183.296v902.144c0 14.336-11.264 25.6-25.6 25.6s-25.6-11.264-25.6-25.6v-898.048l-157.696 179.2c-9.216 10.24-25.6 11.264-35.84 2.048s-11.264-25.6-2.048-35.84l204.8-232.448c5.12-5.12 12.288-8.192 19.456-8.192 0 0 0 0 0 0 7.168 0 14.336 3.072 19.456 9.216l200.704 232.448c9.216 10.24 8.192 26.624-3.072 35.84-11.264 8.192-27.648 7.168-36.864-3.072z" />
<glyph unicode="&#xe91e;" glyph-name="scrool-up" d="M695.296 682.496l-157.696 183.296v-902.144c0-14.336-11.264-25.6-25.6-25.6s-25.6 11.264-25.6 25.6v898.048l-157.696-179.2c-9.216-10.24-25.6-11.264-35.84-2.048s-11.264 25.6-2.048 35.84l204.8 232.448c5.12 5.12 12.288 8.192 19.456 8.192v0c7.168 0 14.336-3.072 19.456-9.216l200.704-232.448c9.216-10.24 8.192-26.624-3.072-35.84-11.264-8.192-27.648-7.168-36.864 3.072z" />
<glyph unicode="&#xe91f;" glyph-name="share" d="M819.2 273.92c-61.44 0-114.688-32.768-143.36-81.92l-360.448 167.936c15.36 25.6 25.6 55.296 25.6 88.064 0 29.696-7.168 57.344-21.504 80.896l357.376 172.032c29.696-47.104 81.92-78.848 142.336-78.848 92.16 0 166.912 74.752 166.912 166.912s-74.752 166.912-166.912 166.912c-92.16 0-166.912-74.752-166.912-166.912 0-17.408 3.072-34.816 8.192-51.2l-365.568-175.104c-30.72 32.768-73.728 52.224-121.856 52.224-91.136 0-166.912-74.752-166.912-166.912s75.776-166.912 167.936-166.912c45.056 0 84.992 17.408 115.712 46.080l369.664-174.080c-4.096-15.36-7.168-30.72-7.168-47.104 0-92.16 74.752-166.912 166.912-166.912s166.912 74.752 166.912 166.912-74.752 167.936-166.912 167.936zM819.2 915.968c69.632 0 125.952-56.32 125.952-125.952s-57.344-126.976-125.952-126.976c-69.632 0-125.952 56.32-125.952 125.952-1.024 69.632 56.32 126.976 125.952 126.976zM174.080 322.048c-69.632 0-125.952 56.32-125.952 125.952s56.32 125.952 125.952 125.952c69.632 0 125.952-56.32 125.952-125.952s-57.344-125.952-125.952-125.952zM819.2-19.968c-69.632 0-125.952 56.32-125.952 125.952s56.32 126.976 125.952 126.976c69.632 0 125.952-56.32 125.952-125.952s-57.344-126.976-125.952-126.976z" />
<glyph unicode="&#xe920;" glyph-name="shuffle" d="M842.752 435.712c-10.24 10.24-26.624 9.216-35.84-1.024-10.24-10.24-9.216-26.624 1.024-35.84l126.976-121.856h-206.848c-11.264 0-23.552 1.024-31.744 7.168-34.816 26.624-90.112 75.776-140.288 121.856-10.24 9.216-26.624 8.192-35.84-2.048s-8.192-26.624 2.048-35.84c51.2-46.080 107.52-96.256 143.36-123.904 20.48-15.36 43.008-17.408 62.464-17.408h201.728l-122.88-111.616c-10.24-9.216-11.264-25.6-2.048-35.84 5.12-5.12 12.288-8.192 19.456-8.192 6.144 0 12.288 2.048 17.408 6.144l173.056 155.648c5.12 5.12 8.192 11.264 8.192 18.432s-3.072 14.336-8.192 18.432l-172.032 165.888zM728.064 629.248h207.872l-128-116.736c-10.24-9.216-11.264-25.6-2.048-35.84 5.12-5.12 12.288-8.192 19.456-8.192 6.144 0 12.288 2.048 17.408 6.144l173.056 156.672c5.12 5.12 8.192 11.264 8.192 18.432s-3.072 14.336-8.192 18.432l-173.056 164.864c-10.24 10.24-26.624 9.216-35.84-1.024-10.24-10.24-9.216-26.624 1.024-35.84l121.856-116.736h-201.728c-47.104 0-73.728-25.6-91.136-41.984-96.256-92.16-241.664-236.544-337.92-335.872-14.336-14.336-40.96-25.6-54.272-25.6h-223.232c-14.336 0-25.6-11.264-25.6-25.6s11.264-25.6 25.6-25.6h224.256c28.672 0 67.584 18.432 90.112 40.96 96.256 100.352 241.664 243.712 337.92 335.872 13.312 13.312 27.648 27.648 54.272 27.648zM25.6 627.2h224.256c7.168 0 28.672-7.168 36.864-15.36 34.816-35.84 71.68-70.656 118.784-113.664 5.12-4.096 11.264-7.168 17.408-7.168 7.168 0 13.312 3.072 18.432 8.192 9.216 10.24 9.216 26.624-2.048 35.84-46.080 43.008-81.92 75.776-116.736 111.616-19.456 20.48-57.344 30.72-73.728 30.72h-223.232c-14.336 1.024-25.6-10.24-25.6-24.576s11.264-25.6 25.6-25.6z" />
<glyph unicode="&#xe921;" glyph-name="sort-letters" d="M459.776 212.48l-157.696-183.296v902.144c0 14.336-11.264 25.6-25.6 25.6s-25.6-11.264-25.6-25.6v-898.048l-157.696 179.2c-9.216 10.24-25.6 11.264-35.84 2.048s-11.264-25.6-2.048-35.84l204.8-232.448c5.12-5.12 12.288-8.192 19.456-8.192 0 0 0 0 0 0 7.168 0 14.336 3.072 19.456 9.216l200.704 232.448c9.216 10.24 8.192 26.624-3.072 35.84-11.264 8.192-27.648 7.168-36.864-3.072zM535.552 455.168h134.144c14.336 0 25.6 11.264 25.6 25.6s-11.264 25.6-25.6 25.6h-43.008l34.816 99.328h175.104l34.816-99.328h-41.984c-14.336 0-25.6-11.264-25.6-25.6s11.264-25.6 25.6-25.6h134.144c14.336 0 25.6 11.264 25.6 25.6s-11.264 25.6-25.6 25.6h-36.864l-151.552 430.080c-2.048 8.192-7.168 16.384-16.384 19.456-1.024 0-1.024 0-2.048 1.024 0 0 0 0-1.024 0s-2.048 0-4.096 1.024c-1.024 0-1.024 0-2.048 0s-1.024 0-2.048 0-2.048 0-4.096-1.024c0 0 0 0-1.024 0s-1.024 0-2.048-1.024c-9.216-3.072-15.36-11.264-16.384-19.456l-151.552-430.080h-36.864c-14.336 0-25.6-11.264-25.6-25.6s11.264-25.6 25.6-25.6zM679.936 656.896l69.632 197.632 69.632-197.632h-139.264zM889.856 213.504c18.432 18.432 31.744 43.008 35.84 70.656 1.024 3.072 1.024 5.12 1.024 8.192v10.24c0 3.072 0 5.12-1.024 8.192-9.216 63.488-62.464 115.712-122.88 115.712h-269.312c-14.336 0-25.6-11.264-25.6-25.6s11.264-25.6 25.6-25.6h7.168v-379.904h-7.168c-14.336 0-25.6-11.264-25.6-25.6s11.264-25.6 25.6-25.6h318.464c75.776 0 137.216 61.44 137.216 137.216 0 63.488-41.984 115.712-99.328 132.096zM802.816 375.296c35.84 0 69.632-36.864 72.704-77.824-3.072-37.888-33.792-67.584-72.704-67.584h-210.944v145.408h210.944zM851.968-4.608h-260.096v173.056h259.072c47.104 0 86.016-38.912 86.016-86.016 1.024-48.128-37.888-87.040-84.992-87.040z" />
<glyph unicode="&#xe922;" glyph-name="sort-numbers" d="M650.24 849.408l73.728 39.936v-378.88h-49.152c-14.336 0-25.6-11.264-25.6-25.6s11.264-25.6 25.6-25.6h155.648c14.336 0 25.6 11.264 25.6 25.6s-11.264 25.6-25.6 25.6h-55.296v421.888c0 9.216-5.12 17.408-12.288 21.504-8.192 5.12-17.408 5.12-25.6 0l-111.616-59.392c-12.288-7.168-17.408-22.528-10.24-34.816s22.528-16.384 34.816-10.24zM459.776 212.48l-157.696-183.296v902.144c0 14.336-11.264 25.6-25.6 25.6s-25.6-11.264-25.6-25.6v-898.048l-157.696 179.2c-9.216 10.24-25.6 11.264-35.84 2.048s-11.264-25.6-2.048-35.84l204.8-232.448c5.12-5.12 12.288-8.192 19.456-8.192 0 0 0 0 0 0 7.168 0 14.336 3.072 19.456 9.216l200.704 232.448c9.216 10.24 8.192 26.624-3.072 35.84-11.264 8.192-27.648 7.168-36.864-3.072zM894.976 43.52c-14.336 0-25.6-11.264-25.6-25.6v-27.648h-187.392l176.128 197.632c41.984 41.984 53.248 101.376 30.72 155.648-22.528 55.296-73.728 89.088-133.12 89.088-78.848 0-143.36-64.512-143.36-143.36v-1.024c0-14.336 11.264-25.6 25.6-25.6s25.6 12.288 25.6 25.6c0 51.2 40.96 92.16 92.16 92.16 45.056 0 73.728-29.696 84.992-57.344s12.288-68.608-20.48-100.352c0 0-1.024-1.024-1.024-1.024l-215.040-241.664c-7.168-7.168-8.192-18.432-4.096-27.648s13.312-15.36 23.552-15.36h270.336c14.336 0 25.6 11.264 25.6 25.6v55.296c1.024 14.336-10.24 25.6-24.576 25.6z" />
<glyph unicode="&#xe923;" glyph-name="sound" d="M556.032 954.88c-6.144 3.072-12.288 0-15.36-1.024l-2.048-1.024-232.448-267.264c-4.096-4.096-4.096-8.192-4.096-10.24v-529.408c0-6.144 3.072-9.216 5.12-11.264l233.472-191.488c4.096-3.072 8.192-3.072 9.216-3.072h4.096l2.048 1.024c5.12 3.072 8.192 8.192 8.192 14.336v985.088c1.024 6.144-3.072 11.264-8.192 14.336zM534.528 901.632v-914.432l-202.752 165.888v517.12l202.752 231.424zM266.24 645.632h-210.944c-8.192 0-15.36-6.144-15.36-15.36v-421.888c0-8.192 6.144-15.36 15.36-15.36h210.944c8.192 0 15.36 6.144 15.36 15.36v422.912c-1.024 7.168-7.168 14.336-15.36 14.336zM69.632 223.744v392.192h181.248v-392.192h-181.248zM687.104 568.832h-70.656c-8.192 0-15.36-6.144-15.36-15.36v-249.856c0-8.192 6.144-15.36 15.36-15.36h70.656c8.192 0 15.36 6.144 15.36 15.36v249.856c0 8.192-7.168 15.36-15.36 15.36zM631.808 318.976v219.136h40.96v-220.16h-40.96zM828.416 619.008h-70.656c-8.192 0-15.36-6.144-15.36-15.36v-351.232c0-8.192 6.144-15.36 15.36-15.36h70.656c8.192 0 15.36 6.144 15.36 15.36v352.256c0 8.192-8.192 14.336-15.36 14.336zM773.12 267.776v321.536h40.96v-321.536h-40.96zM968.704 689.664h-70.656c-8.192 0-15.36-6.144-15.36-15.36v-491.52c0-8.192 6.144-15.36 15.36-15.36h70.656c8.192 0 15.36 6.144 15.36 15.36v491.52c0 9.216-6.144 15.36-15.36 15.36zM913.408 198.144v461.824h40.96v-461.824h-40.96z" />
<glyph unicode="&#xe924;" glyph-name="sound-off" d="M999.424 436.736h-16.384v237.568c0 8.192-6.144 15.36-15.36 15.36h-70.656c-8.192 0-15.36-6.144-15.36-15.36v-237.568h-40.96v166.912c0 8.192-6.144 15.36-15.36 15.36h-70.656c-8.192 0-15.36-6.144-15.36-15.36v-166.912h-40.96v116.736c0 8.192-6.144 15.36-15.36 15.36h-70.656c-8.192 0-15.36-6.144-15.36-15.36v-116.736h-33.792v503.808c0 6.144-3.072 11.264-8.192 14.336-6.144 3.072-12.288 0-15.36-1.024l-2.048-1.024-231.424-267.264c-4.096-4.096-4.096-8.192-4.096-10.24v-238.592h-20.48v194.56c0 8.192-6.144 15.36-15.36 15.36h-210.944c-8.192 0-15.36-6.144-15.36-15.36v-194.56h-15.36c-8.192 0-15.36-6.144-15.36-15.36 0-8.192 6.144-15.36 15.36-15.36h16.384v-197.632c0-8.192 6.144-15.36 15.36-15.36h209.92c8.192 0 15.36 6.144 15.36 15.36v198.656h20.48v-261.12c0-6.144 3.072-9.216 5.12-11.264l233.472-191.488c4.096-3.072 8.192-3.072 9.216-3.072h4.096l2.048 1.024c5.12 3.072 8.192 8.192 8.192 14.336v451.584h37.888v-103.424c0-8.192 6.144-15.36 15.36-15.36h70.656c8.192 0 15.36 6.144 15.36 15.36v103.424h40.96v-154.624c0-8.192 6.144-15.36 15.36-15.36h69.632c8.192 0 15.36 6.144 15.36 15.36v154.624h40.96v-224.256c0-8.192 6.144-15.36 15.36-15.36h70.656c8.192 0 15.36 6.144 15.36 15.36v224.256h14.336c8.192 0 15.36 6.144 15.36 15.36-2.048 8.192-8.192 14.336-17.408 14.336zM954.368 407.040v-208.896h-40.96v208.896h40.96zM954.368 659.968v-223.232h-40.96v223.232h40.96zM814.080 407.040v-139.264h-40.96v139.264h40.96zM814.080 589.312v-152.576h-40.96v152.576h40.96zM672.768 407.040v-89.088h-40.96v89.088h40.96zM673.792 538.112v-101.376h-40.96v101.376h40.96zM534.528 407.040v-419.84l-202.752 165.888v253.952h202.752zM331.776 436.736v233.472l202.752 231.424v-464.896h-202.752zM69.632 436.736v179.2h181.248v-179.2h-181.248zM69.632 223.744v183.296h181.248v-183.296h-181.248z" />
<glyph unicode="&#xe925;" glyph-name="tumblr" d="M808.96 24.064c-9.216 27.648-19.456 56.32-29.696 87.040l-14.336 41.984-1.024 2.048c-1.024 2.048-3.072 7.168-8.192 10.24l-1.024 1.024c-7.168 4.096-14.336 2.048-17.408 0-30.72-11.264-59.392-15.36-87.040-12.288s-44.032 16.384-53.248 39.936c-5.12 14.336-7.168 28.672-7.168 45.056v286.72h175.104c14.336 0 22.528 8.192 22.528 22.528v133.12c0 14.336-8.192 22.528-22.528 22.528h-174.080v229.376c0 14.336-9.216 22.528-22.528 22.528h-132.096c-16.384 0-25.6-6.144-29.696-22.528l-1.024-5.12c-2.048-11.264-4.096-23.552-6.144-33.792-23.552-104.448-78.848-173.056-172.032-208.896-9.216-5.12-14.336-12.288-14.336-22.528v-114.688c0-3.072 0-10.24 6.144-16.384s12.288-6.144 16.384-6.144h78.848v-302.080c0-25.6 2.048-46.080 7.168-65.536 24.576-100.352 84.992-166.912 178.176-199.68 36.864-13.312 74.752-19.456 114.688-19.456 45.056 0 88.064 8.192 133.12 25.6 16.384 7.168 35.84 15.36 54.272 30.72 3.072 4.096 13.312 14.336 7.168 28.672zM337.92 549.376c-5.12 6.144-13.312 6.144-17.408 6.144h-76.8v102.4c100.352 39.936 160.768 113.664 185.344 228.352 3.072 13.312 5.12 26.624 7.168 38.912h122.88v-228.352c0-4.096 0-11.264 6.144-17.408s12.288-6.144 17.408-6.144h174.080v-119.808h-176.128c-4.096 0-11.264 0-17.408-6.144s-6.144-13.312-6.144-18.432v-293.888c0-21.504 3.072-38.912 9.216-55.296 13.312-33.792 39.936-54.272 77.824-59.392 30.72-3.072 61.44 1.024 94.208 12.288 4.096-12.288 8.192-24.576 12.288-36.864 9.216-28.672 18.432-56.32 27.648-81.92-13.312-12.288-30.72-19.456-43.008-23.552-76.8-29.696-152.576-30.72-226.304-5.12-82.944 28.672-137.216 89.088-159.744 178.176-4.096 16.384-6.144 34.816-6.144 58.368v310.272c1.024 4.096 1.024 11.264-5.12 17.408z" />
<glyph unicode="&#xe926;" glyph-name="twitter" d="M1014.784 792.064l-2.048 2.048c-68.608 60.416-192.512 161.792-254.976 161.792-92.16 0-171.008-134.144-229.376-232.448l-5.12-9.216c-31.744-53.248-71.68-118.784-91.136-118.784-27.648 0-222.208 142.336-401.408 283.648-2.048 3.072-4.096 4.096-7.168 5.12-2.048 1.024-6.144 1.024-11.264-1.024-5.12-3.072-8.192-8.192-8.192-14.336v-160.768c0-2.048 0-6.144 3.072-9.216 4.096-6.144 22.528-32.768 113.664-161.792l26.624-37.888c6.144-9.216 5.12-14.336 3.072-18.432-8.192-17.408-45.056-33.792-90.112-37.888-18.432-2.048-23.552-14.336-23.552-17.408-4.096-11.264-14.336-43.008 174.080-212.992l1.024-1.024c4.096-4.096 15.36-16.384 14.336-26.624v-1.024c0-2.048 0-8.192-13.312-16.384-37.888-23.552-146.432-95.232-149.504-98.304-1.024-1.024-5.12-5.12-5.12-11.264 0-4.096 1.024-9.216 9.216-13.312l2.048-1.024c39.936-20.48 174.080-87.040 250.88-88.064h2.048c96.256 0 319.488 83.968 428.032 284.672 51.2 95.232 60.416 152.576 68.608 198.656l1.024 6.144c4.096 30.72 8.192 59.392 25.6 95.232 32.768 66.56 98.304 185.344 168.96 228.352l2.048 1.024c1.024 1.024 5.12 5.12 5.12 11.264-2.048 3.072-4.096 8.192-7.168 11.264zM258.048 179.712c2.048 24.576-16.384 44.032-24.576 52.224-86.016 75.776-159.744 156.672-166.912 179.2 23.552 3.072 93.184 15.36 112.64 56.32 7.168 16.384 5.12 32.768-6.144 48.128-25.6 38.912-118.784 172.032-137.216 197.632v122.88c115.712-91.136 352.256-271.36 397.312-271.36 36.864 0 71.68 58.368 120.832 139.264l2.048 3.072c54.272 92.16 129.024 218.112 203.776 218.112 46.080 0 156.672-86.016 221.184-143.36-65.536-50.176-124.928-151.552-162.816-230.4-18.432-36.864-23.552-66.56-28.672-101.376v-2.048c-7.168-48.128-15.36-102.4-65.536-195.584-95.232-179.2-308.224-269.312-400.384-269.312h-2.048c-59.392 1.024-166.912 48.128-217.088 73.728 32.768 21.504 93.184 62.464 125.952 80.896 17.408 13.312 26.624 26.624 27.648 41.984z" />
<glyph unicode="&#xe927;" glyph-name="vimeo" d="M1004.544 807.424v0c-19.456 39.936-55.296 65.536-106.496 76.8h-2.048c-1.024 0-1.024 0-3.072 1.024l-7.168 2.048h-3.072c-2.048 0-3.072 0-5.12 0s-4.096 1.024-7.168 1.024c-9.216 1.024-19.456 1.024-27.648 0h-1.024c-3.072-1.024-6.144-1.024-10.24-1.024h-2.048c-3.072-1.024-6.144-1.024-9.216-2.048-2.048-1.024-5.12-1.024-7.168-2.048-13.312-2.048-26.624-6.144-38.912-10.24-109.568-40.96-175.104-117.76-199.68-234.496v-2.048c0-4.096 2.048-9.216 5.12-12.288 4.096-4.096 11.264-6.144 16.384-3.072l5.12 3.072c3.072 1.024 5.12 2.048 6.144 3.072 5.12 1.024 10.24 3.072 15.36 5.12 12.288 5.12 21.504 8.192 31.744 9.216 28.672 3.072 50.176-13.312 56.32-43.008 5.12-25.6 1.024-52.224-11.264-77.824-28.672-61.44-61.44-113.664-97.28-159.744-7.168-8.192-15.36-17.408-23.552-23.552s-12.288-6.144-12.288-6.144c0 0-3.072 1.024-8.192 10.24-8.192 14.336-14.336 29.696-18.432 40.96-30.72 92.16-48.128 184.32-64.512 279.552-6.144 30.72-13.312 63.488-23.552 95.232-2.048 7.168-4.096 13.312-5.12 20.48-2.048 6.144-3.072 13.312-5.12 19.456 0 3.072-2.048 6.144-3.072 9.216h-1.024l-1.024 1.024c-33.792 69.632-84.992 90.112-156.672 60.416-52.224-20.48-100.352-53.248-156.672-106.496-18.432-17.408-35.84-35.84-53.248-53.248-8.192-9.216-17.408-17.408-26.624-26.624-11.264-12.288-23.552-23.552-34.816-35.84l-2.048-2.048c-2.048-5.12-2.048-11.264 0-16.384l40.96-55.296c4.096-6.144 12.288-8.192 19.456-4.096l16.384 9.216c4.096 2.048 7.168 4.096 11.264 6.144 10.24 6.144 19.456 11.264 29.696 16.384 2.048 1.024 5.12 2.048 8.192 3.072l4.096 1.024c19.456 6.144 23.552 2.048 29.696-13.312 20.48-59.392 43.008-126.976 66.56-201.728 13.312-43.008 24.576-77.824 33.792-109.568 15.36-51.2 32.768-104.448 50.176-159.744 15.36-48.128 45.056-87.040 87.040-116.736 24.576-17.408 52.224-26.624 78.848-26.624 25.6 0 51.2 9.216 76.8 26.624 50.176 33.792 101.376 77.824 163.84 141.312 96.256 97.28 169.984 196.608 225.28 304.128 108.544 216.064 65.536 338.944 56.32 359.424zM421.888 28.16c-36.864 26.624-62.464 60.416-75.776 101.376-17.408 54.272-34.816 108.544-50.176 159.744-7.168 20.48-13.312 40.96-19.456 62.464-5.12 16.384-10.24 31.744-15.36 48.128-6.144 19.456-13.312 39.936-20.48 60.416-15.36 46.080-30.72 93.184-47.104 141.312-5.12 15.36-15.36 35.84-44.032 35.84-8.192 0-16.384-2.048-24.576-6.144-6.144-2.048-12.288-4.096-17.408-6.144-10.24-5.12-20.48-11.264-30.72-17.408-4.096-2.048-7.168-4.096-11.264-6.144l-4.096-2.048-23.552 32.768c3.072 3.072 7.168 7.168 10.24 10.24 5.12 5.12 10.24 11.264 16.384 16.384 25.6 26.624 52.224 54.272 78.848 78.848 52.224 49.152 99.328 81.92 147.456 101.376 57.344 23.552 93.184 10.24 120.832-47.104l3.072-3.072c2.048-11.264 6.144-22.528 9.216-33.792l2.048-7.168c9.216-30.72 17.408-61.44 22.528-92.16 13.312-78.848 31.744-182.272 65.536-283.648 5.12-14.336 11.264-29.696 20.48-46.080 8.192-17.408 20.48-23.552 28.672-25.6h1.024c11.264-1.024 23.552 3.072 35.84 13.312 10.24 9.216 19.456 18.432 27.648 28.672 35.84 44.032 68.608 96.256 101.376 166.912 15.36 31.744 19.456 64.512 12.288 96.256-9.216 45.056-45.056 71.68-89.088 67.584-11.264-1.024-21.504-4.096-31.744-8.192-2.048-1.024-5.12-2.048-7.168-3.072-1.024 0-1.024 0-2.048-1.024 26.624 89.088 83.968 149.504 174.080 183.296 11.264 4.096 23.552 7.168 34.816 9.216 3.072 1.024 6.144 1.024 8.192 2.048s4.096 1.024 6.144 2.048c2.048 0 4.096 0 6.144 1.024 2.048 0 3.072 0 5.12 0h22.528c5.12-1.024 8.192-1.024 12.288-1.024h1.024c2.048-1.024 4.096-1.024 6.144-1.024 1.024 0 2.048 0 3.072-1.024h1.024c41.984-8.192 69.632-27.648 86.016-60.416 12.288-22.528 36.864-146.432-55.296-330.752-52.224-102.4-123.904-199.68-220.16-296.96-58.368-60.416-107.52-103.424-158.72-139.264-40.96-27.648-80.896-27.648-121.856 0z" />
<glyph unicode="&#xe928;" glyph-name="volume" d="M147.456 663.040h-124.928c-11.264 0-20.48-9.216-20.48-20.48v-389.12c0-11.264 9.216-20.48 20.48-20.48h124.928c11.264 0 20.48 9.216 20.48 20.48v389.12c0 11.264-9.216 20.48-20.48 20.48zM126.976 273.92h-83.968v348.16h83.968v-348.16zM648.192 564.736h-91.136c-11.264 0-20.48-9.216-20.48-20.48v-206.848c0-11.264 9.216-20.48 20.48-20.48h91.136c11.264 0 20.48 9.216 20.48 20.48v206.848c0 11.264-9.216 20.48-20.48 20.48zM627.712 357.888h-50.176v165.888h50.176v-165.888zM830.464 626.176h-91.136c-11.264 0-20.48-9.216-20.48-20.48v-328.704c0-11.264 9.216-20.48 20.48-20.48h91.136c11.264 0 20.48 9.216 20.48 20.48v328.704c0 11.264-9.216 20.48-20.48 20.48zM809.984 297.472h-50.176v287.744h50.176v-287.744zM1002.496 727.552h-91.136c-11.264 0-20.48-9.216-20.48-20.48v-533.504c0-11.264 9.216-20.48 20.48-20.48h91.136c11.264 0 20.48 9.216 20.48 20.48v533.504c0 11.264-9.216 20.48-20.48 20.48zM982.016 195.072h-50.176v491.52h50.176v-491.52zM480.256 947.712c-8.192 3.072-16.384 1.024-22.528-5.12l-241.664-267.264c-3.072-4.096-5.12-8.192-5.12-13.312v-427.008c0-5.12 2.048-10.24 5.12-13.312l242.688-267.264c4.096-4.096 9.216-7.168 15.36-7.168 2.048 0 5.12 0 7.168 1.024 8.192 3.072 13.312 10.24 13.312 19.456v961.536c-1.024 8.192-6.144 15.36-14.336 18.432zM452.608 19.968l-200.704 222.208v411.648l200.704 222.208v-856.064z" />
<glyph unicode="&#xe929;" glyph-name="watch-later" d="M512 952.832c-278.528 0-504.832-226.304-504.832-504.832s226.304-504.832 504.832-504.832c278.528 0 504.832 226.304 504.832 504.832s-226.304 504.832-504.832 504.832zM512-5.632c-249.856 0-453.632 203.776-453.632 453.632s203.776 453.632 453.632 453.632c249.856 0 453.632-203.776 453.632-453.632s-203.776-453.632-453.632-453.632zM755.712 477.696h-219.136v339.968c0 14.336-11.264 25.6-25.6 25.6s-25.6-11.264-25.6-25.6v-339.968h-45.056c-14.336 0-25.6-11.264-25.6-25.6s11.264-25.6 25.6-25.6h46.080v-48.128c0-14.336 11.264-25.6 25.6-25.6s25.6 11.264 25.6 25.6v48.128h218.112c14.336 0 25.6 11.264 25.6 25.6s-12.288 25.6-25.6 25.6z" />
</font>
</defs>
</svg>
